This XML file does not appear to have any style information associated with it. The document tree is shown below.
<svg>
<metadata> Created by FontForge 20090914 at Thu Feb 23 16:18:47 2012 By ffonts Copyright Â© 1996, 1997 BrÃ¸derbund Software. All rights reserved. </metadata>
<defs>
<font id="IntrepidExtraBold" horiz-adv-x="696">
<font-face font-family="Intrepid ExtraBold" font-weight="400" font-stretch="normal" units-per-em="1000" panose-1="0 0 4 0 0 0 0 0 0 0" ascent="800" descent="-200" x-height="490" cap-height="700" bbox="-42 -226 1502 953" underline-thickness="20" underline-position="-190" unicode-range="U+0020-U+F002"/>
<missing-glyph horiz-adv-x="500" d="M63 0v847h375v-847h-375zM125 63h250v722h-250v-722z"/>
<glyph glyph-name=".notdef" horiz-adv-x="500" d="M63 0v847h375v-847h-375zM125 63h250v722h-250v-722z"/>
<glyph glyph-name=".null" horiz-adv-x="0"/>
<glyph glyph-name="glyph2" horiz-adv-x="282"/>
<glyph glyph-name="space" unicode=" " horiz-adv-x="282"/>
<glyph glyph-name="exclam" unicode="!" horiz-adv-x="341" d="M31 105q1 52 44 86q40 31 93 31q56 0 97 -31q45 -33 45 -87q0 -55 -44 -85q-38 -27 -95 -27q-122 -1 -140 113zM49 269v480h245v-480h-245z"/>
<glyph glyph-name="quotedbl" unicode=""" horiz-adv-x="414" d="M28 455h140l22 245h-140zM225 455l21 245h140l-21 -245h-140z"/>
<glyph glyph-name="numbersign" unicode="#" horiz-adv-x="847" d="M522 396l-164 1l-40 -124l164 -1zM777 396h-129l-40 -124h129l-41 -126h-129l-48 -149h-126l48 149l-164 1l-48 -150h-126l48 150h-120l41 126h120l40 124h-120l41 126h119l45 139h126l-45 -139l164 -1l45 140h126l-45 -140h130z"/>
<glyph glyph-name="dollar" unicode="$" horiz-adv-x="577" d="M-3 56l79 195q83 -73 169 -73q23 0 41 9q23 11 23 32q0 33 -47 39q-110 15 -166 53q-74 51 -74 151q0 81 53 145.5t133 84.5l1 85h148v-68q111 -10 190 -62l-71 -177q-67 53 -141 53q-59 0 -59 -37q0 -24 76 -41q97 -22 140 -51q76 -51 76 -155q0 -95 -60 -161 q-56 -62 -152 -83v-80h-148v75q-82 7 -211 66z"/>
<glyph glyph-name="percent" unicode="%" horiz-adv-x="1038" d="M236 19l479 716l91 -62l-480 -715q-2 4 -90 61zM17 506q0 91 66 143q61 49 154 49q91 0 153 -49q68 -53 68 -141q0 -91 -66 -145q-61 -51 -154 -51q-94 0 -155 49q-66 53 -66 145zM588 193q0 91 64 144q60 50 153 50q89 0 151 -49q66 -54 66 -141q0 -93 -61.5 -145 t-155.5 -52t-153 49q-64 52 -64 144zM237 445q40 0 40 60q0 62 -43 62q-36 0 -36 -67q0 -55 39 -55zM804 133q38 0 38 61q0 60 -38 60q-39 0 -39 -60q0 -61 39 -61z"/>
<glyph glyph-name="ampersand" unicode="&" horiz-adv-x="844" d="M164 382l32 9q-30 21 -48.5 57.5t-18.5 72.5q0 59 38 105t94 66.5t123 20.5q98 0 173 -50q85 -58 83 -151q-3 -107 -117 -159q-11 -5 -19 -9l62 -63l112 99l125 -145l-108 -85l160 -150h-292l-43 53l-30 -17q-92 -52 -202 -52q-108 0 -185 55q-86 61 -86 165 q0 108 92 157q34 18 55 21zM277 260q-31 -23 -31 -47q0 -21 23 -36q20 -13 42 -14q32 -1 57 12l19 10l-88 89q-11 -3 -22 -14zM438 510q7 32 -15 50q-12 10 -26 10q-18 0 -33 -15t-15 -33q0 -14 11 -30q2 -2 5 -7l22 -23q44 15 51 48z"/>
<glyph glyph-name="quotesingle" unicode="'" horiz-adv-x="218" d="M28 455l22 245h140l-22 -245h-140z"/>
<glyph glyph-name="parenleft" unicode="(" horiz-adv-x="355" d="M175 840l176 -95q-113 -183 -113 -402t112 -403l-189 -89q-30 49 -54 100q-89 191 -89 379q0 201 103 413q26 54 54 97z"/>
<glyph glyph-name="parenright" unicode=")" horiz-adv-x="355" d="M4 -48q113 183 113 400q0 220 -112 404l189 91q31 -53 52 -99q91 -201 91 -388q0 -252 -153 -502z"/>
<glyph glyph-name="asterisk" unicode="*" horiz-adv-x="376" d="M17 486l82 45l-82 46l50 84l73 -43v82h93v-90l81 45l45 -80l-72 -43l71 -41l-49 -85l-76 46v-87h-93v80l-73 -43z"/>
<glyph glyph-name="plus" unicode="+" d="M103 250v200h142v145h206v-145h142v-200h-142v-145h-206v145h-142z"/>
<glyph glyph-name="comma" unicode="," horiz-adv-x="357" d="M-11 -140l112 346h238l-182 -346h-168z"/>
<glyph glyph-name="hyphen" unicode="-" horiz-adv-x="357" d="M17 240v210h322v-210h-322z"/>
<glyph glyph-name="hyphen" unicode="‐" horiz-adv-x="357" d="M17 240v210h322v-210h-322z"/>
<glyph glyph-name="period" unicode="." horiz-adv-x="315" d="M17 105q0 53 45 87q41 32 95 32q55 0 96 -31q45 -34 45 -88t-45 -88q-41 -31 -96 -31q-54 0 -95 32q-45 34 -45 87z"/>
<glyph glyph-name="slash" unicode="/" horiz-adv-x="591" d="M4 -13l457 725h126l-457 -725h-126z"/>
<glyph glyph-name="zero" unicode="0" horiz-adv-x="695" d="M17 347q0 146 91 252q96 112 240 112q156 0 246 -106q84 -100 84 -258q0 -149 -89 -253q-94 -110 -241 -110q-141 0 -238 112q-93 108 -93 251zM348 194q50 -1 72 55q17 40 16 98q-1 153 -90 153q-85 0 -84 -154q1 -151 86 -152z"/>
<glyph glyph-name="one" unicode="1" horiz-adv-x="695" d="M225 -1v484l-104 -11v228h355v-701h-251z"/>
<glyph glyph-name="two" unicode="2" d="M-11 0l308 300q98 95 102 139q3 28 -13 48t-44 20q-65 0 -63 -77q0 -5 1 -12h-247q-1 24 1 46q12 128 107 195q87 62 219 59q172 -4 249 -118q43 -64 43 -139q0 -82 -51 -146q-47 -57 -127 -90l-74 -30l258 17v-212h-669z"/>
<glyph glyph-name="three" unicode="3" d="M24 249h256q0 -8 1 -12q11 -70 71 -70q59 0 67 57q1 7 1 14q0 55 -67 59q-15 1 -29 -2v145l10 -2q28 -2 47.5 15.5t14.5 45.5q-7 37 -43 37q-42 0 -51 -47v-8h-248q0 21 6 46q42 172 252 187q14 1 39 1q108 0 191 -46q102 -56 102 -155q0 -92 -92 -138q6 -1 13 -5 q50 -19 79 -62t29 -97q0 -57 -34 -108q-79 -119 -271 -119q-55 0 -119 11q-99 17 -162 85.5t-63 167.5z"/>
<glyph glyph-name="four" unicode="4" d="M10 134v182l286 384h297v-376l87 6v-196l-92 6v-140h-236l8 134h-350zM364 323v158l-120 -158h120z"/>
<glyph glyph-name="five" unicode="5" horiz-adv-x="697" d="M42 38l31 203l14 -8l16 -7q57 -25 89 -33q63 -16 108 -13q100 6 100 57q0 37 -55 54q-36 11 -84 11q-81 0 -186 -35l64 433h473v-202l-299 5l-9 -72l10 3l13 3q45 10 79 11q102 2 173 -52q77 -59 77 -159q0 -30 -9 -63q-27 -100 -135 -149q-87 -40 -205 -40 q-123 0 -241 43l-11 4z"/>
<glyph glyph-name="six" unicode="6" d="M125 525l166 175h334l-233 -212q43 19 96 13q81 -9 131 -66q46 -52 58 -136q3 -20 3 -39q0 -128 -101 -205q-91 -70 -223 -70q-60 0 -118 15q-100 26 -162 101t-62 177q0 86 49 167q9 16 25 39t37 41zM346 183q51 0 77 43q7 11 11 32q4 41 -24 69q-26 25 -68 29 q-33 3 -61 -37q-23 -33 -22 -53q1 -22 12 -42q22 -41 75 -41z"/>
<glyph glyph-name="seven" unicode="7" horiz-adv-x="695" d="M26 478v222h675l-400 -700h-280l288 481z"/>
<glyph glyph-name="eight" unicode="8" horiz-adv-x="695" d="M169 364q-51 7 -84 52q-31 42 -31 95q0 56 35 101q71 92 219 104q39 3 79 0q148 -12 219 -104q35 -45 35 -101q0 -54 -31 -95.5t-83 -51.5q4 -2 15 -6q54 -20 87 -60q35 -43 35 -98q0 -64 -47 -118q-84 -97 -270 -97q-187 0 -271 99q-44 52 -44 115q0 108 103 153 q9 4 34 12zM282 212q8 -52 53 -58q12 -3 25 0q56 12 53 72q-2 33 -23.5 53t-54.5 15q-30 -5 -40 -29q-13 -31 -13 -53zM293 479q5 -39 43 -48q7 -2 24.5 2t21.5 8q21 16 21 42q0 53 -47 61q-21 3 -38 -9.5t-22 -33.5q-3 -12 -3 -22z"/>
<glyph glyph-name="nine" unicode="9" horiz-adv-x="695" d="M573 177l-170 -177h-330l232 211q-18 -9 -42 -13q-36 -7 -75 2q-87 20 -133 92q-43 68 -39 160q6 143 149 223q75 42 185 39q141 -4 231 -78q99 -81 99 -218q0 -153 -107 -241zM279 377q27 -35 67 -35q9 0 22 3q29 7 48.5 31.5t19.5 54.5q0 44 -37 70q-24 17 -51 17 q-26 0 -50 -17q-40 -29 -36 -79q2 -26 17 -45z"/>
<glyph glyph-name="colon" unicode=":" horiz-adv-x="342" d="M31 105q0 53 45 87q41 32 95 32t95 -32q45 -34 45 -87t-45 -87q-41 -32 -95 -32q-55 0 -96 31q-44 34 -44 88zM31 385q0 53 45 87q41 32 95 32t95 -32q45 -34 45 -87t-45 -87q-41 -32 -95 -32t-95 32q-45 34 -45 87z"/>
<glyph glyph-name="semicolon" unicode=";" horiz-adv-x="384" d="M-11 -140l112 346h238l-182 -346q-1 2 -168 0zM73 385q0 53 45 87q41 32 95 32q56 0 96 -31q45 -34 45 -88t-45 -88q-40 -31 -96 -31q-54 0 -95 32q-45 34 -45 87z"/>
<glyph glyph-name="less" unicode="<" horiz-adv-x="526" d="M12 423l426 207l77 -158l-259 -126l259 -126l-77 -158l-426 207v154z"/>
<glyph glyph-name="equal" unicode="=" horiz-adv-x="501" d="M17 110v210h472v-210h-472zM17 370v210h472v-210h-472z"/>
<glyph glyph-name="greater" unicode=">" horiz-adv-x="548" d="M525 423l-425 207l-78 -158l259 -126l-259 -126l78 -158l425 207v154z"/>
<glyph glyph-name="question" unicode="?" horiz-adv-x="569" d="M142 105q0 53 44 88q41 31 96 31t96 -31q45 -34 45 -88q0 -57 -44 -87q-38 -26 -97 -26q-122 0 -140 113zM4 511q0 12 3 31q13 84 75 142q59 55 145 70q35 6 64 6q102 0 176 -55q78 -57 94 -155q4 -24 4 -47q0 -150 -138 -211q-7 -2 -21 -8v-19h-245v211q53 -29 92 -29 q34 0 56.5 18.5t22.5 51.5q0 7 -1 15q0 4 -3 10q-9 26 -37 26q-42 0 -48 -44l-1 -7l-1 -6h-237z"/>
<glyph glyph-name="at" unicode="@" horiz-adv-x="806" d="M404 -17q-154 0 -261.5 108t-107.5 262t107.5 261.5t261.5 107.5t259 -96q109 -98 109 -251v-18q-5 -96 -85 -123q-42 -14 -175 -14h-121l9 40q-31 -44 -91 -44q-43 0 -68 34q-23 30 -23 75q0 92 67 146q37 30 76 30q50 0 72 -45l6 36h132l-38 -216h1q17 -6 45 -6 q39 0 77 10q52 15 59 42q4 15 4 53q0 129 -94 213q-90 80 -221 80q-130 0 -223 -92.5t-93 -222.5q0 -131 92.5 -223.5t223.5 -92.5q175 0 268 151l59 -4q-47 -93 -135 -147t-192 -54zM379 319q18 0 30.5 15.5t12.5 33.5q0 25 -23 30q-21 4 -36 -13t-15 -38q0 -28 31 -28z "/>
<glyph glyph-name="A" unicode="A" horiz-adv-x="711" d="M-31 0l243 700h287l243 -700h-266l-25 88h-191l-27 -88h-264zM302 254h106l-52 203z"/>
<glyph glyph-name="B" unicode="B" horiz-adv-x="641" d="M31 0v700h346q65 0 118 -25q60 -28 88 -80q22 -41 22 -86q0 -50 -25 -89q-27 -42 -73 -57l16 -6q51 -18 82.5 -62t31.5 -99q0 -93 -73 -147q-66 -49 -162 -49h-371zM336 168q26 0 44.5 15.5t18.5 41.5q0 59 -74 59h-54v-116h65zM314 432q52 0 59 42q4 26 -11.5 42.5 t-41.5 16.5h-48v-101h42z"/>
<glyph glyph-name="C" unicode="C" horiz-adv-x="566" d="M542 684v-250q-9 8 -35 26q-41 26 -90 26q-60 0 -100.5 -39t-40.5 -98q0 -62 44 -100.5t106 -34.5q53 4 101 34q8 5 15 10v-248l-46 -11q-59 -14 -117 -14q-134 0 -230 75.5t-124 206.5q-8 37 -8 74q0 75 32 149q46 105 135 162t204 57q80 0 154 -25z"/>
<glyph glyph-name="D" unicode="D" horiz-adv-x="721" d="M31 0v700h262q11 0 16 -1q343 -19 389 -289q10 -61 2 -124q-18 -135 -112 -210.5t-232 -75.5h-325zM306 210q69 0 108 36.5t37 104.5q-3 119 -121 130h-47v-271h23z"/>
<glyph glyph-name="E" unicode="E" horiz-adv-x="524" d="M31 0v700h467v-189h-216v-66h195v-183h-195v-66h221v-196h-472z"/>
<glyph glyph-name="F" unicode="F" horiz-adv-x="502" d="M31 0v700h467v-200h-214v-72h186v-183h-186v-245h-253z"/>
<glyph glyph-name="G" unicode="G" horiz-adv-x="795" d="M743 537l-233 -88l-3 4l-4 6q-31 47 -91 47q-70 0 -109 -58q-35 -53 -30 -125q4 -56 33 -95q33 -42 87 -46q37 -3 69.5 14t40.5 51h-112v168h386q2 -16 2 -28q4 -177 -94 -289q-101 -116 -276 -116q-42 0 -88 8q-137 24 -220.5 119t-83.5 233q0 45 9 89q22 106 100 183 q106 104 273 104q245 0 344 -181z"/>
<glyph glyph-name="H" unicode="H" horiz-adv-x="715" d="M31 0v700h253v-235h148v235h251v-700h-251v246h-148v-246h-253z"/>
<glyph glyph-name="I" unicode="I" horiz-adv-x="312" d="M31 0v700h250v-700h-250z"/>
<glyph glyph-name="J" unicode="J" horiz-adv-x="501" d="M-24 83l144 179l2 -7l3 -9q15 -33 40 -40q54 -9 54 77v417h251v-450q0 -67 -12 -106q-15 -49 -56 -89q-68 -66 -206 -68q-131 -2 -220 96z"/>
<glyph glyph-name="K" unicode="K" horiz-adv-x="699" d="M281 0h-250v700h251v-292l33 57l123 235h273l-214 -342l241 -358h-288l-169 294v-294z"/>
<glyph glyph-name="L" unicode="L" horiz-adv-x="506" d="M31 0v700h252v-471h212v-229h-464z"/>
<glyph glyph-name="M" unicode="M" horiz-adv-x="924" d="M263 278l-31 -278h-235l115 700h250l100 -339l100 339h250l115 -700h-236l-40 373l-112 -373h-154l-113 371z"/>
<glyph glyph-name="N" unicode="N" horiz-adv-x="777" d="M310 296l180 -296h256v700h-248v-349l-31 45l-186 304h-250v-700h249v340z"/>
<glyph glyph-name="O" unicode="O" horiz-adv-x="796" d="M17 349q0 164 108 264t273 100q157 0 266 -99q112 -102 115 -258q3 -162 -107 -267t-273 -105q-166 0 -274 100t-108 265zM398 209q58 0 92 44q32 41 32 100q0 56 -34 95.5t-89 39.5q-58 0 -92 -40.5t-34 -99.5q0 -58 33 -97q35 -42 92 -42z"/>
<glyph glyph-name="P" unicode="P" horiz-adv-x="643" d="M31 0v700h341q113 0 188 -67q79 -69 79 -181q0 -20 -2 -37q-12 -96 -70 -150t-154 -54h-132v-211h-250zM328 389q32 0 51 17t19 50q0 26 -25 45q-13 10 -34 10h-57v-122h46z"/>
<glyph glyph-name="Q" unicode="Q" horiz-adv-x="804" d="M715 125l82 -80l-146 -145l-109 107q-64 -23 -150 -23q-139 0 -239 74q-104 78 -129 212q-8 43 -8 84q0 142 85.5 237t227.5 117q70 11 139 0q141 -22 225 -115q86 -96 86 -237q0 -107 -45 -195q-8 -12 -19 -36zM398 209q58 0 93 44q31 41 31 100q0 56 -34 95.5t-89 39.5 q-58 0 -92 -40.5t-34 -99.5q0 -58 33 -97q35 -42 92 -42z"/>
<glyph glyph-name="R" unicode="R" horiz-adv-x="654" d="M282 0h-251v700h344q10 -1 15 -1q105 -11 171 -71q70 -64 70 -166q0 -138 -113 -182q-5 -2 -14 -6l181 -274h-290l-113 235v-235zM317 388q62 0 68 54q2 18 -6 36q-15 27 -51 32q-2 0 -5 1h-40v-123h34z"/>
<glyph glyph-name="S" unicode="S" horiz-adv-x="577" d="M-3 56l79 195q83 -73 169 -73q63 0 64 41q1 33 -47 39l-32 4l-21 4l-22 5q-26 6 -37 11q-59 20 -93.5 69.5t-34.5 112.5q0 84 60 152q82 94 236 94q106 0 208 -51q15 -8 21 -12l-71 -177q-67 53 -141 53q-59 0 -59 -37q0 -14 13 -22l8 -4l8 -3l6 -2l11 -3l9 -2l45 -11 l24 -5l19 -5q69 -18 109 -68t40 -121q0 -34 -9 -68q-24 -93 -112 -143q-77 -44 -180 -44q-145 0 -270 71z"/>
<glyph glyph-name="T" unicode="T" horiz-adv-x="510" d="M-11 474v226h532v-228l-142 7v-479h-251v479z"/>
<glyph glyph-name="U" unicode="U" horiz-adv-x="703" d="M31 276v424h249v-395q0 -45 9 -66q14 -31 52 -36q10 -1 21 0q38 5 52 36q9 21 9 66v395h249v-424q0 -250 -256 -286q-35 -5 -65 -5q-29 0 -64 5q-256 36 -256 286z"/>
<glyph glyph-name="V" unicode="V" horiz-adv-x="679" d="M453 700h264l-267 -700h-221l-268 700h265l114 -387z"/>
<glyph glyph-name="W" unicode="W" horiz-adv-x="1044" d="M807 700h261l-241 -700h-216l-88 345l-89 -345h-217l-241 700h261l88 -385l98 385h198l98 -384z"/>
<glyph glyph-name="X" unicode="X" horiz-adv-x="757" d="M276 0h-287l245 374l-217 326h285l77 -146l76 146h286l-218 -326l245 -374h-288l-101 186z"/>
<glyph glyph-name="Y" unicode="Y" horiz-adv-x="650" d="M406 700h283l-238 -400v-300h-252v300l-238 400h283l81 -176z"/>
<glyph glyph-name="Z" unicode="Z" horiz-adv-x="672" d="M650 217v-217h-674l301 490h-242v210h647l-295 -483h263z"/>
<glyph glyph-name="bracketleft" unicode="[" horiz-adv-x="304" d="M31 -95v891h269v-139h-57v-613h57v-139h-269z"/>
<glyph glyph-name="backslash" unicode="\" horiz-adv-x="591" d="M587 -13l-457 725h-126l457 -725h126z"/>
<glyph glyph-name="bracketright" unicode="]" horiz-adv-x="304" d="M4 -95v139h57v613h-57v139h269v-891h-269z"/>
<glyph glyph-name="asciicircum" unicode="^" horiz-adv-x="537" d="M560 286h-163l-128 257l-130 -257h-162l217 414h148z"/>
<glyph glyph-name="underscore" unicode="_" horiz-adv-x="435" d="M435 -200h-440v60h440v-60z"/>
<glyph glyph-name="grave" unicode="`" horiz-adv-x="387" d="M297 560l-66 -43l-162 133l97 64z"/>
<glyph glyph-name="a" unicode="a" horiz-adv-x="641" d="M372 424v66h239l-1 -490h-237v67q-24 -43 -80 -65q-35 -14 -70 -14q-97 0 -155 84q-51 74 -51 176q0 22 5 53q14 85 66 142q57 63 139 63q94 0 145 -82zM291 181q13 -5 26 -5q30 0 48 23q16 20 16 51q0 29 -18 49t-46 20q-29 0 -47.5 -21t-19.5 -50q-1 -50 41 -67z"/>
<glyph glyph-name="b" unicode="b" horiz-adv-x="634" d="M31 0v749h241l-10 -329q4 5 24 27q4 5 14 13q50 42 113 42t113 -38q47 -36 70 -97q20 -52 20 -120q0 -29 -3 -53q-10 -85 -63 -144q-57 -64 -139 -64q-48 0 -92 26.5t-65 68.5v-81h-223zM257 231q9 -55 65 -55q30 0 47.5 19.5t17.5 49.5q0 31 -17.5 52.5t-48.5 21.5 q-28 0 -46 -21t-19 -50q-1 -5 1 -17z"/>
<glyph glyph-name="c" unicode="c" horiz-adv-x="445" d="M421 473v-197q-44 39 -91 39q-32 0 -51.5 -19t-19.5 -51t21 -51.5t53 -19.5q39 0 88 37v-194q-98 -28 -144 -28q-112 0 -186 67.5t-74 178.5q0 32 6 62q19 94 92 149q70 53 168 53q39 0 80 -9q8 -1 28 -7z"/>
<glyph glyph-name="d" unicode="d" horiz-adv-x="638" d="M370 423v326h237v-749h-226v76q-24 -40 -67.5 -65t-90.5 -25q-71 0 -125 50q-50 45 -69 117q-5 20 -8 78q-2 53 0 69q12 83 64 139q57 62 137 62q43 0 85 -21.5t63 -56.5zM316 176q30 0 47.5 20.5t17.5 51.5t-17.5 51t-48.5 20q-29 0 -47 -20.5t-18 -50.5 q0 -31 17.5 -51.5t48.5 -20.5z"/>
<glyph glyph-name="e" unicode="e" horiz-adv-x="616" d="M599 205h-349v-10q1 -80 63 -74q45 5 45 40h232q-23 -85 -109 -135q-77 -45 -171 -45q-50 0 -98 12q-90 22 -142.5 87.5t-52.5 157.5q0 30 5 57q19 101 99 159q76 55 182 56q110 1 187.5 -55.5t101.5 -162.5q8 -36 8 -69v-9q-1 -5 -1 -9zM373 297q0 10 -1 15 q-5 52 -51 62q-28 6 -46 -14.5t-21 -49.5v-13h119z"/>
<glyph glyph-name="f" unicode="f" horiz-adv-x="366" d="M-7 302v188h66v61q0 103 54 158t157 55q41 0 81 -7q7 -1 25 -5v-186l-5 2l-8 3q-11 4 -22 3q-52 -6 -46 -72l1 -12h79v-189l-80 8v-309h-236v307z"/>
<glyph glyph-name="g" unicode="g" horiz-adv-x="631" d="M374 419v71h226v-434q0 -144 -93 -215q-82 -64 -232 -64q-71 0 -145 18q-39 10 -65 19l-11 4l-12 5l52 160q1 -1 12 -8q67 -48 152 -48q96 0 114 84q3 9 3 20v62q-26 -72 -115 -86q-62 -10 -116 16.5t-88 81.5q-37 58 -39 143q-1 25 4 55q13 84 67 140q59 62 140 62 q96 0 146 -86zM251 231q10 -56 63 -56q14 0 28 6q40 17 39 67q-1 35 -22 54t-56 16q-53 -4 -53 -71q0 -10 1 -16z"/>
<glyph glyph-name="h" unicode="h" horiz-adv-x="625" d="M31 0v749h242v-341q21 43 62.5 68t89.5 25q15 0 31 -3q66 -12 102 -56.5t36 -111.5v-330h-236v249q0 63 -36 63q-49 0 -49 -64v-248h-242z"/>
<glyph glyph-name="i" unicode="i" horiz-adv-x="297" d="M30 0v490h236v-490h-236zM17 647q0 51 41 85q38 31 91 31q51 0 90.5 -33t39.5 -83t-39.5 -82.5t-90.5 -32.5q-52 0 -92 32t-40 83z"/>
<glyph glyph-name="j" unicode="j" horiz-adv-x="297" d="M30 -196v686h236v-686q-4 1 -236 0zM17 647q0 51 41 85q38 31 91 31q51 0 90.5 -33t39.5 -83t-39.5 -82.5t-90.5 -32.5q-52 0 -92 32t-40 83z"/>
<glyph glyph-name="k" unicode="k" horiz-adv-x="611" d="M270 0h-239v749h238v-435l35 57l65 119h278l-180 -240l185 -250h-281l-101 181v-181z"/>
<glyph glyph-name="l" unicode="l" horiz-adv-x="299" d="M31 0v749h237v-749h-237z"/>
<glyph glyph-name="m" unicode="m" horiz-adv-x="904" d="M31 0v490h224v-92q7 14 10 21q50 85 139 85q51 0 90 -30.5t55 -79.5q15 50 56 80t93 30q15 0 33 -3q142 -23 142 -200v-301h-235l-1 278q0 35 -33 35q-38 0 -38 -47v-266h-228v246q0 23 -2 34q-5 27 -28 27q-8 0 -18 -4q-23 -9 -23 -54v-249h-236z"/>
<glyph glyph-name="n" unicode="n" horiz-adv-x="618" d="M31 0v490h224v-82q4 5 10 14q64 82 150 82q14 0 32 -3q140 -24 140 -186v-315h-237v248q0 54 -30 61q-13 1 -25 -3q-26 -14 -26 -58v-248h-238z"/>
<glyph glyph-name="o" unicode="o" horiz-adv-x="628" d="M17 246q0 125 88 196q81 65 209 65q126 0 208 -66q89 -72 89 -195t-89 -195q-82 -66 -208 -66q-128 0 -209 65q-88 71 -88 196zM314 173q30 0 47.5 21t17.5 52q0 30 -17 52t-47 22q-31 0 -48.5 -21.5t-17.5 -52.5t17.5 -52t47.5 -21z"/>
<glyph glyph-name="p" unicode="p" horiz-adv-x="638" d="M31 -196v686h231v-75q1 4 7 13q53 78 145 78q99 0 157 -82q51 -72 49 -175q-2 -100 -52 -173q-58 -83 -153 -83q-46 0 -85 21q-42 22 -62 62v-272q-34 2 -237 0zM326 176q31 0 48 20.5t17 51.5q0 30 -17 50.5t-47 20.5t-48.5 -20.5t-18.5 -50.5q0 -31 18 -51.5t48 -20.5z "/>
<glyph glyph-name="q" unicode="q" horiz-adv-x="633" d="M377 411v79h225v-686h-237l7 268q-21 -35 -63.5 -58.5t-84.5 -23.5q-79 0 -136 62q-52 56 -66 138q-6 34 -6 66q0 98 53 170q59 78 154 78q44 0 79 -19q54 -29 75 -74zM313 176q29 0 46.5 20t17.5 50q0 31 -17 52t-47 21t-48 -20.5t-19 -50.5q-1 -31 17.5 -51.5 t49.5 -20.5z"/>
<glyph glyph-name="r" unicode="r" horiz-adv-x="415" d="M31 0v490h234v-71q26 71 125 83q24 3 43 0v-238q-5 4 -12 8q-32 19 -61 20q-92 2 -92 -107v-185h-237z"/>
<glyph glyph-name="s" unicode="s" horiz-adv-x="458" d="M-9 40l62 149q28 -23 67 -39q45 -19 74 -14q23 4 28 19q6 19 -14 29q-2 1 -7 3l-4 1l-11 2l-9 2l-16 1q-137 23 -140 143q-3 147 180 170q44 6 98 0q85 -9 143 -42l-58 -141l-12 8l-12 7q-56 33 -93 28q-29 -4 -29 -25q0 -18 25 -23l15 -3l2 -1h3l18 -4q18 -4 63 -18 q80 -29 89 -114q2 -17 1 -21q-2 -98 -88 -141q-66 -33 -173 -30q-99 3 -179 43l-12 6z"/>
<glyph glyph-name="t" unicode="t" horiz-adv-x="360" d="M-7 300v190h59v161h238v-169l80 9v-191l-80 7v-307h-238v306z"/>
<glyph glyph-name="u" unicode="u" horiz-adv-x="612" d="M31 216v274h236v-257q0 -63 45 -56q31 5 31 56v257h237v-274q0 -202 -232 -226q-42 -4 -85 0q-232 24 -232 226z"/>
<glyph glyph-name="v" unicode="v" horiz-adv-x="557" d="M345 490h254l-215 -490h-211l-215 490h255l66 -223z"/>
<glyph glyph-name="w" unicode="w" horiz-adv-x="864" d="M350 490h164l59 -254l59 254h257l-196 -490h-199l-62 218l-18 -65l-44 -153h-199l-195 490h256l58 -250z"/>
<glyph glyph-name="x" unicode="x" horiz-adv-x="614" d="M249 0h-284l206 255l-185 235h274l48 -95l48 95h272l-184 -235l205 -255h-283l-57 101z"/>
<glyph glyph-name="y" unicode="y" horiz-adv-x="558" d="M358 490h246l-299 -686h-250l118 239l-215 447h257l73 -246z"/>
<glyph glyph-name="z" unicode="z" horiz-adv-x="539" d="M515 188v-188h-543l212 306h-159v184h531l-214 -302h173z"/>
<glyph glyph-name="braceleft" unicode="{" horiz-adv-x="357" d="M28 350q29 1 47 21t18 49v301q0 98 97 98h139v-84h-13q-54 0 -54 -47v-247q0 -36 -25.5 -61.5t-61.5 -29.5q36 -4 61.5 -29.5t25.5 -61.5v-247q0 -47 54 -47h13v-84h-139q-97 0 -97 98v301q0 29 -18 49t-47 21z"/>
<glyph glyph-name="bar" unicode="|" horiz-adv-x="181" d="M23 -13v725h126v-725h-126z"/>
<glyph glyph-name="braceright" unicode="}" horiz-adv-x="357" d="M28 -119v84h13q54 0 54 47v247q0 35 26 61t61 30q-35 4 -61 30t-26 61v247q0 47 -54 47h-13v84h139q46 0 71 -26t25 -72v-301q0 -29 18.5 -49t47.5 -21q-29 -1 -47.5 -21t-18.5 -49v-301q0 -98 -96 -98h-139z"/>
<glyph glyph-name="asciitilde" unicode="~" horiz-adv-x="627" d="M596 276q-28 -52 -68 -91q-54 -54 -103 -54q-44 0 -125 51.5t-100 51.5q-43 0 -83 -74l-86 86q28 54 68 91q49 45 100 45q41 0 117.5 -51t104.5 -51q38 0 85 88z"/>
<glyph glyph-name="Adieresis" unicode="Ä" horiz-adv-x="726" d="M-31 0l243 700h287l243 -700h-266l-25 88h-191l-27 -88h-264zM302 254h106l-52 203zM538 800q0 -28 -22 -47t-52 -19t-51.5 18.5t-21.5 47.5t22 47.5t51 18.5q30 0 52 -18.5t22 -47.5zM335 800q0 -28 -22 -47t-51 -19q-30 0 -52.5 18.5t-22.5 47.5t22.5 47.5t52.5 18.5 q29 0 51 -18.5t22 -47.5z"/>
<glyph glyph-name="Aring" unicode="Å" horiz-adv-x="729" d="M-31 0l243 700h287l243 -700h-266l-25 88h-191l-27 -88h-264zM302 254h106l-52 203zM470 823q0 -45 -31.5 -70.5t-77.5 -25.5t-77 26t-31 70q0 45 32 73q30 25 76 25t76 -25q33 -28 33 -73zM399 824q0 32 -38 32q-39 0 -39 -32q0 -33 39 -33q38 0 38 33z"/>
<glyph glyph-name="Ccedilla" unicode="Ç" horiz-adv-x="566" d="M542 684v-250q-9 8 -35 26q-41 26 -90 26q-60 0 -100.5 -39t-40.5 -98q0 -62 44 -100.5t106 -34.5q53 4 101 34q8 5 15 10v-248l-46 -11q-61 -14 -117 -14h-8l-31 -37q19 5 32 5q36 0 59.5 -19.5t23.5 -55.5q0 -46 -39 -71q-33 -22 -81 -22t-96 23l18 40q37 -16 66 -16 q55 0 55 41q0 19 -14.5 29.5t-33.5 10.5h-12q-6 -1 -27 -8l-18 20l49 64q-115 15 -194 89.5t-103 188.5q-8 37 -8 74q0 75 32 149q46 105 135 162t204 57q80 0 154 -25z"/>
<glyph glyph-name="Eacute" unicode="É" horiz-adv-x="667" d="M31 0v700h467v-189h-216v-66h195v-183h-195v-66h221v-196h-472zM437 865l-164 -134l-66 44l131 154z"/>
<glyph glyph-name="Ntilde" unicode="Ñ" horiz-adv-x="769" d="M310 296l180 -296h256v700h-248v-349l-31 45l-186 304h-250v-700h249v340zM611 825q-49 -94 -122 -94q-28 0 -75.5 23.5t-62.5 23.5q-29 0 -51 -44l-65 47q48 89 122 89q29 0 73 -24t60 -24q28 0 55 47z"/>
<glyph glyph-name="Odieresis" unicode="Ö" horiz-adv-x="806" d="M17 349q0 164 108 264t273 100q157 0 266 -99q112 -102 115 -258q3 -162 -107 -267t-273 -105q-166 0 -274 100t-108 265zM398 209q58 0 92 44q32 41 32 100q0 56 -34 95.5t-89 39.5q-58 0 -92 -40.5t-34 -99.5q0 -58 33 -97q35 -42 92 -42zM558 797q0 -29 -22 -48 t-52 -19t-51.5 18.5t-21.5 48.5q0 29 22 47.5t51 18.5q30 0 52 -19t22 -47zM355 797q0 -29 -22 -48t-51 -19q-30 0 -51 18q-24 19 -24 49q0 29 24 48q21 18 51 18q29 0 51 -19t22 -47z"/>
<glyph glyph-name="Udieresis" unicode="Ü" horiz-adv-x="694" d="M31 276v424h249v-395q0 -45 9 -66q14 -31 52 -36q10 -1 21 0q38 5 52 36q9 21 9 66v395h249v-424q0 -250 -256 -286q-35 -5 -65 -5q-29 0 -64 5q-256 36 -256 286zM529 797q0 -29 -22 -47.5t-52 -18.5t-51.5 18.5t-21.5 47.5t22 47.5t51 18.5q30 0 52 -18.5t22 -47.5z M326 797q0 -28 -22 -47t-51 -19q-30 0 -52.5 18.5t-22.5 47.5t22.5 47.5t52.5 18.5q29 0 51 -19t22 -47z"/>
<glyph glyph-name="aacute" unicode="á" horiz-adv-x="630" d="M372 424v66h239l-1 -490h-237v67q-24 -43 -80 -65q-35 -14 -70 -14q-97 0 -155 84q-51 74 -51 176q0 22 5 53q14 85 66 142q57 63 139 63q94 0 145 -82zM291 181q13 -5 26 -5q30 0 48 23q16 20 16 51q0 29 -18 49t-46 20q-29 0 -47.5 -21t-19.5 -50q-1 -50 41 -67z M514 671l-164 -133l-66 43l131 154z"/>
<glyph glyph-name="agrave" unicode="à" horiz-adv-x="630" d="M372 424v66h239l-1 -490h-237v67q-24 -43 -80 -65q-35 -14 -70 -14q-97 0 -155 84q-51 74 -51 176q0 22 5 53q14 85 66 142q57 63 139 63q94 0 145 -82zM291 181q13 -5 26 -5q30 0 48 23q16 20 16 51q0 29 -18 49t-46 20q-29 0 -47.5 -21t-19.5 -50q-1 -50 41 -67z M409 572l-66 -43l-162 133l97 64z"/>
<glyph glyph-name="acircumflex" unicode="â" horiz-adv-x="640" d="M372 424v66h239l-1 -490h-237v67q-24 -43 -80 -65q-35 -14 -70 -14q-97 0 -155 84q-51 74 -51 176q0 22 5 53q14 85 66 142q57 63 139 63q94 0 145 -82zM291 181q13 -5 26 -5q30 0 48 23q16 20 16 51q0 29 -18 49t-46 20q-29 0 -47.5 -21t-19.5 -50q-1 -50 41 -67z M551 601l-55 -70l-115 73l-116 -72l-54 70l171 114z"/>
<glyph glyph-name="adieresis" unicode="ä" horiz-adv-x="630" d="M372 424v66h239l-1 -490h-237v67q-24 -43 -80 -65q-35 -14 -70 -14q-97 0 -155 84q-51 74 -51 176q0 22 5 53q14 85 66 142q57 63 139 63q94 0 145 -82zM291 181q13 -5 26 -5q30 0 48 23q16 20 16 51q0 29 -18 49t-46 20q-29 0 -47.5 -21t-19.5 -50q-1 -50 41 -67z M559 605q0 -29 -22.5 -47.5t-51.5 -18.5q-30 0 -52 18t-22 48q0 29 22 47.5t52 18.5q29 0 51.5 -18.5t22.5 -47.5zM355 605q0 -29 -22 -47.5t-50 -18.5q-30 0 -52.5 18.5t-22.5 47.5t22.5 47.5t52.5 18.5q28 0 50 -19t22 -47z"/>
<glyph glyph-name="atilde" unicode="ã" horiz-adv-x="630" d="M372 424v66h239l-1 -490h-237v67q-24 -43 -80 -65q-35 -14 -70 -14q-97 0 -155 84q-51 74 -51 176q0 22 5 53q14 85 66 142q57 63 139 63q94 0 145 -82zM291 181q13 -5 26 -5q30 0 48 23q16 20 16 51q0 29 -18 49t-46 20q-29 0 -47.5 -21t-19.5 -50q-1 -50 41 -67z M568 632q-50 -93 -123 -93q-27 0 -75 23.5t-63 23.5q-29 0 -51 -44l-65 47q49 89 122 89q29 0 73 -24t60 -24q29 0 55 47z"/>
<glyph glyph-name="aring" unicode="å" horiz-adv-x="633" d="M372 424v66h239l-1 -490h-237v67q-24 -43 -80 -65q-35 -14 -70 -14q-97 0 -155 84q-51 74 -51 176q0 22 5 53q14 85 66 142q57 63 139 63q94 0 145 -82zM291 181q13 -5 26 -5q30 0 48 23q16 20 16 51q0 29 -18 49t-46 20q-29 0 -47.5 -21t-19.5 -50q-1 -50 41 -67z M491 634q0 -45 -31.5 -70.5t-78.5 -25.5q-45 0 -75 25q-33 26 -33 71t31 71.5t77 26.5t78 -26.5t32 -71.5zM420 635q0 32 -39 32q-38 0 -38 -32q0 -33 38 -33q39 0 39 33z"/>
<glyph glyph-name="ccedilla" unicode="ç" horiz-adv-x="449" d="M421 473v-197q-44 39 -91 39q-32 0 -51.5 -19t-19.5 -51t21 -51.5t53 -19.5q39 0 88 37v-194q-29 -8 -57 -17q-33 -8 -59 -10q-20 -1 -38 -1l-39 -51q21 5 34 5q34 0 57.5 -20.5t23.5 -54.5q0 -46 -37 -71q-33 -22 -81 -22q-49 0 -97 23l18 40q37 -16 66 -16q54 0 54 41 q0 17 -13 28.5t-30 11.5q-12 0 -32 -5l-12 -3l-16 20l58 79q-72 12 -123 57q-81 70 -81 184q0 31 6 62q19 94 92 149q70 53 168 53q39 0 80 -9q8 -1 28 -7z"/>
<glyph glyph-name="eacute" unicode="é" horiz-adv-x="618" d="M599 205h-349v-10q1 -80 63 -74q45 5 45 40h232q-23 -85 -109 -135q-77 -45 -171 -45q-50 0 -98 12q-90 22 -142.5 87.5t-52.5 157.5q0 30 5 57q19 101 99 159q76 55 182 56q110 1 187.5 -55.5t101.5 -162.5q8 -36 8 -69v-9q-1 -5 -1 -9zM373 297q0 10 -1 15 q-5 52 -51 62q-28 6 -46 -14.5t-21 -49.5v-13h119zM458 675l-164 -134l-67 43l132 154z"/>
<glyph glyph-name="egrave" unicode="è" horiz-adv-x="621" d="M599 205h-349v-10q1 -80 63 -74q45 5 45 40h232q-23 -85 -109 -135q-77 -45 -171 -45q-50 0 -98 12q-90 22 -142.5 87.5t-52.5 157.5q0 30 5 57q19 101 99 159q76 55 182 56q110 1 187.5 -55.5t101.5 -162.5q8 -36 8 -69v-9q-1 -5 -1 -9zM373 297q0 10 -1 15 q-5 52 -51 62q-28 6 -46 -14.5t-21 -49.5v-13h119zM425 581l-66 -42l-162 133l97 63z"/>
<glyph glyph-name="ecircumflex" unicode="ê" horiz-adv-x="618" d="M599 205h-349v-10q1 -80 63 -74q45 5 45 40h232q-23 -85 -109 -135q-77 -45 -171 -45q-50 0 -98 12q-90 22 -142.5 87.5t-52.5 157.5q0 30 5 57q19 101 99 159q76 55 182 56q110 1 187.5 -55.5t101.5 -162.5q8 -36 8 -69v-9q-1 -5 -1 -9zM373 297q0 10 -1 15 q-5 52 -51 62q-28 6 -46 -14.5t-21 -49.5v-13h119zM477 610l-55 -70l-115 73l-116 -72l-54 70l171 114z"/>
<glyph glyph-name="edieresis" unicode="ë" horiz-adv-x="618" d="M599 205h-349v-10q1 -80 63 -74q45 5 45 40h232q-23 -85 -109 -135q-77 -45 -171 -45q-50 0 -98 12q-90 22 -142.5 87.5t-52.5 157.5q0 30 5 57q19 101 99 159q76 55 182 56q110 1 187.5 -55.5t101.5 -162.5q8 -36 8 -69v-9q-1 -5 -1 -9zM373 297q0 10 -1 15 q-5 52 -51 62q-28 6 -46 -14.5t-21 -49.5v-13h119zM488 605q0 -29 -22 -47.5t-51 -18.5q-31 0 -52.5 18t-21.5 48q0 29 22 47.5t52 18.5q29 0 51 -19t22 -47zM285 605q0 -29 -22 -47.5t-51 -18.5q-30 0 -52 18.5t-22 47.5t22 47.5t52 18.5q29 0 51 -19t22 -47z"/>
<glyph glyph-name="iacute" unicode="í" horiz-adv-x="290" d="M290 672l-164 -134l-66 43l131 154zM30 0v490h236v-490h-236z"/>
<glyph glyph-name="igrave" unicode="ì" horiz-adv-x="295" d="M226 581l-66 -43l-162 134l97 63zM30 0v490h236v-490h-236z"/>
<glyph glyph-name="icircumflex" unicode="î" horiz-adv-x="292" d="M322 606l-55 -70l-116 73l-115 -72l-54 70l171 114zM30 0v490h236v-490h-236z"/>
<glyph glyph-name="idieresis" unicode="ï" horiz-adv-x="300" d="M333 603q0 -29 -22.5 -47.5t-51.5 -18.5q-30 0 -52 18.5t-22 47.5t22 47.5t52 18.5q29 0 51.5 -18.5t22.5 -47.5zM129 603q0 -28 -22 -47t-50 -19q-30 0 -52.5 18.5t-22.5 47.5t22.5 47.5t52.5 18.5q28 0 50 -18.5t22 -47.5zM30 0v490h236v-490h-236z"/>
<glyph glyph-name="ntilde" unicode="ñ" horiz-adv-x="607" d="M31 0v490h224v-82q4 5 10 14q64 82 150 82q14 0 32 -3q140 -24 140 -186v-315h-237v248q0 54 -30 61q-13 1 -25 -3q-26 -14 -26 -58v-248h-238zM492 629q-49 -93 -122 -93q-28 0 -75.5 23.5t-62.5 23.5q-29 0 -51 -44l-65 47q48 89 122 89q29 0 73 -24t60 -24q28 0 55 47 z"/>
<glyph glyph-name="oacute" unicode="ó" horiz-adv-x="628" d="M17 246q0 125 88 196q81 65 209 65q126 0 208 -66q89 -72 89 -195t-89 -195q-82 -66 -208 -66q-128 0 -209 65q-88 71 -88 196zM314 173q30 0 47.5 21t17.5 52q0 30 -17 52t-47 22q-31 0 -48.5 -21.5t-17.5 -52.5t17.5 -52t47.5 -21zM441 672l-164 -134l-66 43l131 154z "/>
<glyph glyph-name="ograve" unicode="ò" horiz-adv-x="637" d="M17 246q0 125 88 196q81 65 209 65q126 0 208 -66q89 -72 89 -195t-89 -195q-82 -66 -208 -66q-128 0 -209 65q-88 71 -88 196zM314 173q30 0 47.5 21t17.5 52q0 30 -17 52t-47 22q-31 0 -48.5 -21.5t-17.5 -52.5t17.5 -52t47.5 -21zM411 581l-66 -43l-162 134l97 63z "/>
<glyph glyph-name="ocircumflex" unicode="ô" horiz-adv-x="634" d="M17 246q0 125 88 196q81 65 209 65q126 0 208 -66q89 -72 89 -195t-89 -195q-82 -66 -208 -66q-128 0 -209 65q-88 71 -88 196zM314 173q30 0 47.5 21t17.5 52q0 30 -17 52t-47 22q-31 0 -48.5 -21.5t-17.5 -52.5t17.5 -52t47.5 -21zM486 607l-55 -70l-115 73l-116 -72 l-54 70l171 114z"/>
<glyph glyph-name="odieresis" unicode="ö" horiz-adv-x="637" d="M17 246q0 125 88 196q81 65 209 65q126 0 208 -66q89 -72 89 -195t-89 -195q-82 -66 -208 -66q-128 0 -209 65q-88 71 -88 196zM314 173q30 0 47.5 21t17.5 52q0 30 -17 52t-47 22q-31 0 -48.5 -21.5t-17.5 -52.5t17.5 -52t47.5 -21zM487 605q0 -29 -22 -47.5t-51 -18.5 q-30 0 -52 18t-22 48q0 29 22 47.5t52 18.5q29 0 51 -19t22 -47zM284 605q0 -29 -22 -47.5t-51 -18.5t-51.5 18.5t-22.5 47.5t22.5 47.5t51.5 18.5t51 -19t22 -47z"/>
<glyph glyph-name="otilde" unicode="õ" horiz-adv-x="637" d="M17 246q0 125 88 196q81 65 209 65q126 0 208 -66q89 -72 89 -195t-89 -195q-82 -66 -208 -66q-128 0 -209 65q-88 71 -88 196zM314 173q30 0 47.5 21t17.5 52q0 30 -17 52t-47 22q-31 0 -48.5 -21.5t-17.5 -52.5t17.5 -52t47.5 -21zM512 632q-50 -93 -122 -93 q-28 0 -75.5 23t-62.5 23q-30 0 -51 -43l-66 47q49 89 122 89q29 0 73.5 -24t60.5 -24q28 0 55 47z"/>
<glyph glyph-name="uacute" unicode="ú" horiz-adv-x="603" d="M31 216v274h236v-257q0 -63 45 -56q31 5 31 56v257h237v-274q0 -202 -232 -226q-42 -4 -85 0q-232 24 -232 226zM465 669l-164 -134l-66 43l131 154z"/>
<glyph glyph-name="ugrave" unicode="ù" horiz-adv-x="603" d="M31 216v274h236v-257q0 -63 45 -56q31 5 31 56v257h237v-274q0 -202 -232 -226q-42 -4 -85 0q-232 24 -232 226zM365 582l-66 -43l-162 133l97 64z"/>
<glyph glyph-name="ucircumflex" unicode="û" horiz-adv-x="606" d="M31 216v274h236v-257q0 -63 45 -56q31 5 31 56v257h237v-274q0 -202 -232 -226q-42 -4 -85 0q-232 24 -232 226zM497 608l-55 -71l-116 73l-115 -72l-55 71l172 113z"/>
<glyph glyph-name="udieresis" unicode="ü" horiz-adv-x="609" d="M31 216v274h236v-257q0 -63 45 -56q31 5 31 56v257h237v-274q0 -202 -232 -226q-42 -4 -85 0q-232 24 -232 226zM483 603q0 -29 -22.5 -47.5t-51.5 -18.5q-30 0 -52 18.5t-22 47.5t22 47.5t52 18.5q29 0 51.5 -18.5t22.5 -47.5zM279 603q0 -28 -22 -47t-51 -19 t-51.5 18.5t-22.5 47.5t22.5 47.5t51.5 18.5t51 -18.5t22 -47.5z"/>
<glyph glyph-name="dagger" unicode="†" horiz-adv-x="578" d="M371 395v-589h-165v589h-188v147h188v211h165v-211h188v-147h-188z"/>
<glyph glyph-name="degree" unicode="°" horiz-adv-x="400" d="M347 557q0 -62 -42.5 -104.5t-104.5 -42.5t-104.5 42t-42.5 104q0 63 42 105t105 42t105 -41.5t42 -104.5zM297 556q0 41 -28.5 72t-69.5 31h-6q-37 0 -64 -32t-27 -70q0 -39 28 -71t67 -32q42 0 71 30t29 72z"/>
<glyph glyph-name="cent" unicode="¢" horiz-adv-x="445" d="M189 481v83h140v-70q35 -4 47 -7q28 -5 45 -14v-197q-45 39 -91 39q-31 0 -51 -19.5t-20 -50.5q0 -32 21 -51.5t53 -19.5q40 0 88 37v-194q-29 -10 -92 -23v-73l-140 -1v82q-81 18 -128 88q-44 65 -44 151q0 87 45 151.5t127 88.5z"/>
<glyph glyph-name="sterling" unicode="£" horiz-adv-x="627" d="M4 128q21 12 126 49q23 8 32 35l14 50h-86v136h89l-10 61q-6 35 -6 61q0 103 73 160q66 52 172 52q87 0 145 -52t57 -138l-160 -34q1 5 1 14q0 19 -11 33.5t-30 14.5q-45 0 -45 -63q0 -18 4.5 -55t4.5 -55h139v-135h-145q-1 -39 -33 -93q8 -2 49 -15q29 -9 49 -9 q55 0 101 37l70 -133q-105 -74 -212 -74q-35 0 -103 21t-103 21q-32 0 -128 -36z"/>
<glyph glyph-name="section" unicode="§" horiz-adv-x="596" d="M566 307q0 -91 -85 -151q43 -48 43 -109q0 -89 -69 -142q-63 -48 -155 -48t-166 57q-67 51 -65 97l115 38q10 -26 46.5 -47t65.5 -21q33 0 58 19t25 50q0 28 -26 47q-14 11 -50 27l-120 53q-76 35 -105 60q-48 41 -48 106q0 90 93 150q-35 43 -35 94q0 80 68 128 q61 43 144 43q74 0 132 -28q69 -35 84 -99l-115 -38q-17 53 -100 53q-27 0 -47 -17t-20 -44q0 -26 25 -44q7 -6 47 -25l117 -54q68 -32 98 -58q45 -39 45 -97zM428 286q0 28 -49 52l-179 87q-34 -27 -34 -66q0 -32 56 -58l173 -80q33 31 33 65z"/>
<glyph glyph-name="bullet" unicode="•" horiz-adv-x="336" d="M28 350q0 58 41 99t99 41t99 -41t41 -99t-41 -99t-99 -41t-99 41t-41 99z"/>
<glyph glyph-name="paragraph" unicode="¶" horiz-adv-x="537" d="M497 -172h-75v829h-116v-829h-75v516q-93 0 -151 48q-63 52 -63 142t66 140q59 44 152 44h262v-890z"/>
<glyph glyph-name="germandbls" unicode="ß" horiz-adv-x="629" d="M609 256q0 -130 -88 -206q-86 -72 -217 -65v134q54 0 93 35t39 89t-38.5 86t-93.5 30v130q39 -1 65 23.5t26 63.5q0 35 -25 55.5t-61 20.5q-78 0 -78 -111v-541h-171v586q0 100 66 160q63 57 165 57q105 0 176 -46q83 -54 83 -153q0 -94 -74 -143q61 -29 97 -84t36 -121z "/>
<glyph glyph-name="registered" unicode="®" horiz-adv-x="768" d="M720 321q0 -140 -97.5 -238t-237.5 -98t-237.5 98t-97.5 238t97.5 237.5t237.5 97.5t237.5 -97.5t97.5 -237.5zM385 607q-119 0 -203 -83.5t-84 -202.5t84 -203t203 -84t203 84t84 203t-84 202.5t-203 83.5zM370 139h-125v350h179q56 -6 91 -41.5t29 -90.5 q-6 -59 -56 -78q-4 -2 -7 -3l91 -137h-145l-57 117v-117zM388 333q31 0 34 27q0 9 -3 18q-8 13 -26 16h-3q-1 1 -2 1h-17v-62h17z"/>
<glyph glyph-name="copyright" unicode="©" horiz-adv-x="768" d="M720 321q0 -140 -97.5 -238t-237.5 -98t-237.5 98t-97.5 238t97.5 237.5t237.5 97.5t237.5 -97.5t97.5 -237.5zM385 607q-119 0 -203 -83.5t-84 -202.5t84 -203t203 -84t203 84t84 203t-84 202.5t-203 83.5zM491 488v-125q-32 25 -63 25q-30 0 -50 -19t-20 -49 q0 -31 22 -50t53 -17q34 3 58 22v-124l-23 -6q-27 -7 -59 -7q-78 0 -129.5 50.5t-51.5 127.5q0 39 16 75q48 109 170 109q40 0 77 -12z"/>
<glyph glyph-name="trademark" unicode="™" horiz-adv-x="651" d="M29 610v90h212v-91l-56 3v-192h-101v192zM340 420h-94l46 280h100l40 -136l40 136h100l46 -280h-94l-16 149l-45 -149h-62l-45 148z"/>
<glyph glyph-name="acute" unicode="´" horiz-adv-x="387" d="M313 650l-164 -134l-66 44l131 154z"/>
<glyph glyph-name="dieresis" unicode="¨" horiz-adv-x="512" d="M429 619q0 -28 -22 -47t-51 -19q-30 0 -52 18.5t-22 47.5t22 47.5t52 18.5q29 0 51 -18.5t22 -47.5zM226 619q0 -28 -22 -47t-51 -19q-30 0 -52 18.5t-22 47.5t22 47.5t52 18.5q29 0 51 -18.5t22 -47.5z"/>
<glyph glyph-name="AE" unicode="Æ" horiz-adv-x="940" d="M925 0h-404l-23 129h-249l-68 -129h-192l395 700h405l30 -158h-222l23 -119h203l30 -150h-203l23 -116h222zM473 265l-40 213l-112 -213h152z"/>
<glyph glyph-name="Oslash" unicode="Ø" horiz-adv-x="813" d="M793 350q0 -166 -107.5 -265.5t-275.5 -99.5q-105 0 -192 41l-58 -83l-73 40l61 87q-128 105 -128 280q0 162 115 265q111 100 275 100q89 0 161 -31l45 65l73 -40l-45 -65q71 -52 110 -129.5t39 -164.5zM602 350q0 84 -62 144l-221 -322q38 -17 89 -17q87 0 140.5 54 t53.5 141zM470 537q-31 11 -62 11q-83 0 -139 -56.5t-56 -139.5q0 -78 40 -129z"/>
<glyph glyph-name="plusminus" unicode="±" horiz-adv-x="626" d="M385 345v-161h-145v161h-216v144h216v160h145v-160h215v-144h-215zM24 3v144h576v-144h-576z"/>
<glyph glyph-name="yen" unicode="¥" horiz-adv-x="647" d="M648 700q-130 -233 -138 -245h90v-91h-139l-40 -71v-6h179v-92h-179v-195h-175v195h-191v92h191l-6 17l-37 60h-148v91h93l-149 245h196l136 -257l129 257h188z"/>
<glyph glyph-name="mu" unicode="µ" horiz-adv-x="565" d="M528 187q0 -100 -72 -154q-65 -49 -168 -49q-39 0 -70 17v-227h-172v683h172v-249q0 -85 71 -85q66 0 66 85v249h173v-270z"/>
<glyph glyph-name="mu" unicode="μ" horiz-adv-x="565" d="M528 187q0 -100 -72 -154q-65 -49 -168 -49q-39 0 -70 17v-227h-172v683h172v-249q0 -85 71 -85q66 0 66 85v249h173v-270z"/>
<glyph glyph-name="ordfeminine" unicode="ª" horiz-adv-x="425" d="M406 237h-383v91h383v-91zM249 654v42h151v-311h-150v43q-28 -50 -95 -50q-62 0 -99 53q-32 47 -32 111q0 14 3 34q9 54 42 90q36 40 88 40q59 0 92 -52zM214 497q41 0 41 47q0 18 -11.5 30.5t-29.5 12.5t-30 -13t-12 -32q-1 -45 42 -45z"/>
<glyph glyph-name="ordmasculine" unicode="º" horiz-adv-x="425" d="M404 542q0 -76 -60 -122q-54 -42 -132 -42q-77 0 -131 43q-60 47 -60 121q0 75 59 122q55 42 132 42q80 0 133 -41q59 -45 59 -123zM406 237h-383v91h383v-91zM285 542q0 28 -21.5 46.5t-49.5 18.5q-29 0 -50.5 -18.5t-21.5 -46.5q0 -27 22 -45.5t50 -18.5t49.5 18.5 t21.5 45.5z"/>
<glyph glyph-name="ae" unicode="æ" horiz-adv-x="911" d="M891 203h-351q11 -89 92 -89q52 0 78 40h172q-19 -86 -92 -130q-65 -39 -159 -39q-118 0 -189 59q-46 -36 -100 -49q-42 -10 -111 -10q-89 0 -144 33q-68 41 -68 124q0 81 63 123q54 36 138 36q74 0 128 -27q0 15 -1 17q-7 88 -107 88q-71 0 -178 -33v116q109 25 189 25 q107 0 183 -68q70 71 195 71q117 0 189.5 -70t72.5 -186v-31zM714 308q-14 66 -80 66q-67 0 -84 -66h164zM371 149q0 30 -38 46q-29 11 -64 11q-34 0 -59 -14q-31 -17 -31 -48t30 -49q25 -15 58 -15q37 0 67 16q37 19 37 53z"/>
<glyph glyph-name="oslash" unicode="ø" horiz-adv-x="584" d="M564 237q0 -113 -79.5 -183t-194.5 -70q-66 0 -126 27l-48 -70l-47 26l49 71q-101 75 -101 199q0 112 81 184q79 69 192 69q69 0 124 -24l42 60l47 -26l-42 -60q103 -72 103 -203zM394 237q0 38 -27 67l-110 -159q15 -6 35 -6q41 0 71.5 28.5t30.5 69.5zM322 332 q-18 5 -30 5q-42 0 -72 -29t-30 -71q0 -32 23 -62z"/>
<glyph glyph-name="questiondown" unicode="¿" horiz-adv-x="569" d="M427 647q0 -53 -44 -88q-41 -31 -96 -31t-96 31q-45 34 -45 88q0 57 44 87q38 26 97 26q122 0 140 -113zM565 241q0 -12 -3 -31q-13 -84 -73.5 -140.5t-146.5 -71.5q-35 -6 -64 -6q-102 0 -176 55q-78 57 -94 155q-4 24 -4 47q0 150 138 211q7 2 21 8v19h245v-211 q-53 29 -92 29q-34 0 -56.5 -18.5t-22.5 -51.5q0 -7 1 -15q0 -4 3 -10q9 -26 37 -26q42 0 48 44l1 7l1 6h237z"/>
<glyph glyph-name="exclamdown" unicode="¡" horiz-adv-x="341" d="M310 636q-1 -52 -42.5 -84.5t-94.5 -32.5q-56 0 -97 31q-45 33 -45 87q0 55 44 85q38 27 95 27q122 1 140 -113zM292 472v-480h-245v480h245z"/>
<glyph glyph-name="logicalnot" unicode="¬" horiz-adv-x="584" d="M545 108h-75v209h-431v73h506v-282z"/>
<glyph glyph-name="florin" unicode="ƒ" horiz-adv-x="556" d="M501 721l-15 -78q-39 17 -60 17q-30 0 -49.5 -26.5t-28.5 -72.5l-20 -99h114v-71h-127l-64 -351q-21 -113 -70 -180t-132 -67q-38 0 -61 13l16 81q26 -14 53 -14q46 0 72 55q13 29 25 95l68 368h-109v71h123l3 12l26 114q15 55 42 89q47 60 122 60q34 0 72 -16z"/>
<glyph glyph-name="guillemotleft" unicode="«" horiz-adv-x="556" d="M460 446l-1 -88l-105 -81l105 -81v-89l-158 125v91zM255 196l-1 -89l-157 125v91l158 124l-1 -89l-104 -81z"/>
<glyph glyph-name="guillemotright" unicode="»" horiz-adv-x="556" d="M459 231l-158 -124v89l105 81l-105 81v89l158 -124v-92zM254 231l-158 -124v89l105 81l-105 81v89l158 -124v-92z"/>
<glyph glyph-name="ellipsis" unicode="…" horiz-adv-x="1080" d="M1001 93q0 -44 -30 -74t-74 -30q-45 0 -75 29.5t-30 74.5t30 76t75 31t74.5 -31t29.5 -76zM641 93q0 -44 -30 -74t-74 -30t-74.5 29.5t-30.5 74.5t30 76t75 31t74.5 -31t29.5 -76zM281 93q0 -44 -30 -74t-74 -30t-74.5 29.5t-30.5 74.5t30 76t75 31t74.5 -31t29.5 -76z "/>
<glyph glyph-name="nonbreakingspace" unicode=" " horiz-adv-x="282"/>
<glyph glyph-name="Agrave" unicode="À" horiz-adv-x="734" d="M-31 0l243 700h287l243 -700h-266l-25 88h-191l-27 -88h-264zM302 254h106l-52 203zM446 771l-66 -42l-163 133l97 63z"/>
<glyph glyph-name="Atilde" unicode="Ã" horiz-adv-x="736" d="M-31 0l243 700h287l243 -700h-266l-25 88h-191l-27 -88h-264zM302 254h106l-52 203zM556 822q-49 -94 -122 -94q-28 0 -75.5 23.5t-62.5 23.5q-29 0 -51 -44l-65 47q48 89 122 89q28 0 72.5 -24t60.5 -24q28 0 55 47z"/>
<glyph glyph-name="Otilde" unicode="Õ" horiz-adv-x="800" d="M17 349q0 164 108 264t273 100q157 0 266 -99q112 -102 115 -258q3 -162 -107 -267t-273 -105q-166 0 -274 100t-108 265zM398 209q58 0 92 44q32 41 32 100q0 56 -34 95.5t-89 39.5q-58 0 -92 -40.5t-34 -99.5q0 -58 33 -97q35 -42 92 -42zM615 824q-49 -93 -122 -93 q-27 0 -75 23.5t-63 23.5q-29 0 -51 -44l-65 47q48 89 122 89q29 0 73 -24t60 -24q29 0 55 47z"/>
<glyph glyph-name="OE" unicode="Œ" horiz-adv-x="999" d="M970 0h-367v63q-36 -35 -89.5 -56.5t-103.5 -21.5q-168 0 -277 98q-113 101 -113 267q0 162 115 265q111 100 275 100q48 0 106 -24q65 -25 87 -61v70h367v-158h-191v-119h172v-150h-172v-116h191v-157zM602 350q0 80 -57 139t-137 59q-83 0 -139 -56.5t-56 -139.5 q0 -90 53 -143.5t142 -53.5q87 0 140.5 54t53.5 141z"/>
<glyph glyph-name="oe" unicode="œ" horiz-adv-x="941" d="M921 203h-351q12 -89 92 -89q52 0 78 40h172q-18 -86 -92 -130q-65 -39 -159 -39q-118 0 -189 59q-74 -60 -182 -60q-112 0 -191 69q-82 73 -82 184q0 112 81 184q79 69 192 69q107 0 185 -60q70 60 184 60q117 0 189.5 -70t72.5 -186v-31zM744 308q-14 66 -80 66 q-67 0 -84 -66h164zM394 237q0 41 -30 70.5t-72 29.5t-72 -29t-30 -71q0 -41 30.5 -69.5t71.5 -28.5t71.5 28.5t30.5 69.5z"/>
<glyph glyph-name="endash" unicode="–" d="M75 276v148h546v-148h-546z"/>
<glyph glyph-name="emdash" unicode="—" horiz-adv-x="417" d="M17 70v176h383v-176h-383z"/>
<glyph glyph-name="quotedblleft" unicode="“" horiz-adv-x="624" d="M-3 354l182 346h168l-112 -346q-4 -2 -63 -2t-175 2zM263 354l182 346h168l-112 -346h-238z"/>
<glyph glyph-name="quotedblright" unicode="”" horiz-adv-x="624" d="M-3 354l112 346h238l-182 -346q-7 2 -168 0zM263 354l112 346h238l-182 -346h-168z"/>
<glyph glyph-name="quoteleft" unicode="‘" horiz-adv-x="358" d="M-3 354l182 346h168l-112 -346h-238z"/>
<glyph glyph-name="quoteright" unicode="’" horiz-adv-x="358" d="M-3 354l112 346h238l-182 -346h-168z"/>
<glyph glyph-name="divide" unicode="÷" d="M245 569q0 36 35 59q31 19 69 19t69 -19q36 -23 36 -59q0 -37 -35 -60q-31 -19 -70 -19t-69 20q-35 22 -35 59zM245 129q0 36 35 59q31 19 69 19t69 -19q36 -23 36 -59q0 -37 -35 -60q-31 -19 -70 -19t-69 20q-35 22 -35 59zM593 450v-200h-490v200h490z"/>
<glyph glyph-name="ydieresis" unicode="ÿ" horiz-adv-x="581" d="M358 490h246l-299 -686h-250l118 239l-215 447h257l73 -246zM479 599q0 -29 -22 -47.5t-51 -18.5q-30 0 -52 18t-22 48q0 29 22 47.5t52 18.5q29 0 51 -19t22 -47zM276 599q0 -29 -22 -47.5t-51 -18.5t-51.5 18.5t-22.5 47.5t22.5 47.5t51.5 18.5t51 -19t22 -47z"/>
<glyph glyph-name="Ydieresis" unicode="Ÿ" horiz-adv-x="667" d="M406 700h283l-238 -400v-300h-252v300l-238 400h283l81 -176zM512 797q0 -29 -22 -47.5t-52 -18.5t-51.5 18.5t-21.5 47.5t22 47.5t51 18.5q30 0 52 -18.5t22 -47.5zM309 797q0 -28 -22 -47t-51 -19q-30 0 -52.5 18.5t-22.5 47.5t22.5 47.5t52.5 18.5q29 0 51 -18.5 t22 -47.5z"/>
<glyph glyph-name="currency" unicode="¤" horiz-adv-x="772" d="M638 365q0 -76 -63 -163l61 -62l-22 -25l-62 61q-83 -60 -163 -60q-85 0 -167 60l-62 -61l-24 25l61 62q-57 85 -57 161q0 80 58 168l-62 62l24 25l62 -61q92 55 167 55q76 0 158 -58l63 63l23 -24l-54 -57q59 -98 59 -171zM530 360q0 62 -39.5 105t-101.5 43t-101.5 -43 t-39.5 -105q0 -64 38.5 -102t102.5 -38t102.5 38t38.5 102z"/>
<glyph glyph-name="guilsinglleft" unicode="‹" horiz-adv-x="333" d="M246 107l-158 125v91l157 123l1 -88l-105 -81l104 -81z"/>
<glyph glyph-name="guilsinglright" unicode="›" horiz-adv-x="333" d="M246 231l-158 -124v89l105 81l-105 81v89l158 -124v-92z"/>
<glyph glyph-name="daggerdbl" unicode="‡" horiz-adv-x="590" d="M371 8v-202h-165v202h-188v147h188v248h-188v147h188v203h165v-203h188v-147h-188v-248h188v-147h-188z"/>
<glyph glyph-name="periodcentered" unicode="·" horiz-adv-x="368" d="M287 372q0 -43 -30 -73.5t-74 -30.5q-45 0 -75 29.5t-30 74.5t30.5 76t74.5 31q45 0 74.5 -31t29.5 -76z"/>
<glyph glyph-name="periodcentered" unicode="∙" horiz-adv-x="368" d="M287 372q0 -43 -30 -73.5t-74 -30.5q-45 0 -75 29.5t-30 74.5t30.5 76t74.5 31q45 0 74.5 -31t29.5 -76z"/>
<glyph glyph-name="quotesinglbase" unicode="‚" horiz-adv-x="272" d="M212 84q0 -135 -103 -202l-56 58q64 55 64 96q0 15 -1 19q-3 8 -16 8h-40v147h152v-126z"/>
<glyph glyph-name="quotedblbase" unicode="„" horiz-adv-x="482" d="M424 84q0 -135 -103 -202l-56 58q64 54 64 96q0 15 -2 19q-3 8 -15 8h-40v147h152v-126zM212 84q0 -135 -103 -202l-56 58q64 55 64 96q0 15 -1 19q-3 8 -16 8h-40v147h152v-126z"/>
<glyph glyph-name="perthousand" unicode="‰" horiz-adv-x="1532" d="M236 19l479 716l91 -62l-480 -715q-2 4 -90 61zM17 506q0 91 66 143q61 49 154 49q91 0 153 -49q68 -53 68 -141q0 -91 -66 -145q-61 -51 -154 -51q-94 0 -155 49q-66 53 -66 145zM588 193q0 91 64 144q60 50 153 50q89 0 151 -49q66 -54 66 -141q0 -93 -61.5 -145 t-155.5 -52t-153 49q-64 52 -64 144zM237 445q40 0 40 60q0 62 -43 62q-36 0 -36 -67q0 -55 39 -55zM804 133q38 0 38 61q0 60 -38 60q-39 0 -39 -60q0 -61 39 -61zM1068 193q0 91 64 144q60 50 153 50q89 0 151 -49q66 -54 66 -141q0 -93 -61.5 -145t-155.5 -52t-153 49 q-64 52 -64 144zM1284 133q38 0 38 61q0 60 -38 60q-39 0 -39 -60q0 -61 39 -61z"/>
<glyph glyph-name="Acircumflex" unicode="Â" horiz-adv-x="730" d="M-31 0l243 700h287l243 -700h-266l-25 88h-191l-27 -88h-264zM302 254h106l-52 203zM528 800l-55 -70l-116 73l-115 -72l-55 70l172 114z"/>
<glyph glyph-name="Ecircumflex" unicode="Ê" horiz-adv-x="533" d="M31 0v700h467v-189h-216v-66h195v-183h-195v-66h221v-196h-472zM432 800l-55 -70l-116 73l-115 -72l-54 70l171 114z"/>
<glyph glyph-name="Aacute" unicode="Á" horiz-adv-x="728" d="M-31 0l243 700h287l243 -700h-266l-25 88h-191l-27 -88h-264zM302 254h106l-52 203zM500 862l-164 -134l-66 43l131 154z"/>
<glyph glyph-name="Edieresis" unicode="Ë" horiz-adv-x="529" d="M31 0v700h467v-189h-216v-66h195v-183h-195v-66h221v-196h-472zM449 797q0 -29 -22.5 -47.5t-51.5 -18.5q-30 0 -51.5 18.5t-21.5 47.5t22 47.5t51 18.5t51.5 -18.5t22.5 -47.5zM245 797q0 -28 -21.5 -47t-50.5 -19q-30 0 -52.5 18.5t-22.5 47.5t22.5 47.5t52.5 18.5 q29 0 50.5 -18.5t21.5 -47.5z"/>
<glyph glyph-name="Egrave" unicode="È" horiz-adv-x="519" d="M31 0v700h467v-189h-216v-66h195v-183h-195v-66h221v-196h-472zM354 775l-66 -43l-163 133l97 64z"/>
<glyph glyph-name="Iacute" unicode="Í" horiz-adv-x="311" d="M315 865l-164 -134l-66 44l132 154zM31 0v700h250v-700h-250z"/>
<glyph glyph-name="Icircumflex" unicode="Î" horiz-adv-x="313" d="M31 0v700h250v-700h-250zM329 800l-55 -70l-116 73l-115 -72l-55 70l172 114z"/>
<glyph glyph-name="Idieresis" unicode="Ï" horiz-adv-x="308" d="M31 0v700h250v-700h-250zM328 797q0 -29 -22 -47.5t-51 -18.5q-30 0 -52 18.5t-22 47.5t22 47.5t52 18.5q29 0 51 -18.5t22 -47.5zM125 797q0 -28 -22 -47t-51 -19q-30 0 -52 18.5t-22 47.5t22 47.5t52 18.5q29 0 51 -18.5t22 -47.5z"/>
<glyph glyph-name="Igrave" unicode="Ì" horiz-adv-x="309" d="M31 0v700h250v-700h-250zM261 775l-66 -43l-163 133l97 64z"/>
<glyph glyph-name="Oacute" unicode="Ó" horiz-adv-x="810" d="M17 349q0 164 108 264t273 100q157 0 266 -99q112 -102 115 -258q3 -162 -107 -267t-273 -105q-166 0 -274 100t-108 265zM398 209q58 0 92 44q32 41 32 100q0 56 -34 95.5t-89 39.5q-58 0 -92 -40.5t-34 -99.5q0 -58 33 -97q35 -42 92 -42zM527 861l-164 -134l-66 44 l131 154z"/>
<glyph glyph-name="Ocircumflex" unicode="Ô" horiz-adv-x="807" d="M17 349q0 164 108 264t273 100q157 0 266 -99q112 -102 115 -258q3 -162 -107 -267t-273 -105q-166 0 -274 100t-108 265zM398 209q58 0 92 44q32 41 32 100q0 56 -34 95.5t-89 39.5q-58 0 -92 -40.5t-34 -99.5q0 -58 33 -97q35 -42 92 -42zM587 800l-55 -70l-116 73 l-115 -72l-55 70l172 114z"/>
<glyph glyph-name="Ograve" unicode="Ò" horiz-adv-x="810" d="M17 349q0 164 108 264t273 100q157 0 266 -99q112 -102 115 -258q3 -162 -107 -267t-273 -105q-166 0 -274 100t-108 265zM398 209q58 0 92 44q32 41 32 100q0 56 -34 95.5t-89 39.5q-58 0 -92 -40.5t-34 -99.5q0 -58 33 -97q35 -42 92 -42zM528 771l-66 -43l-162 133 l97 64z"/>
<glyph glyph-name="Uacute" unicode="Ú" horiz-adv-x="707" d="M31 276v424h249v-395q0 -45 9 -66q14 -31 52 -36q10 -1 21 0q38 5 52 36q9 21 9 66v395h249v-424q0 -250 -256 -286q-35 -5 -65 -5q-29 0 -64 5q-256 36 -256 286zM519 865l-164 -133l-67 43l132 154z"/>
<glyph glyph-name="Ucircumflex" unicode="Û" horiz-adv-x="706" d="M31 276v424h249v-395q0 -45 9 -66q14 -31 52 -36q10 -1 21 0q38 5 52 36q9 21 9 66v395h249v-424q0 -250 -256 -286q-35 -5 -65 -5q-29 0 -64 5q-256 36 -256 286zM538 801l-55 -70l-115 72l-116 -72l-54 71l171 113z"/>
<glyph glyph-name="Ugrave" unicode="Ù" horiz-adv-x="700" d="M31 276v424h249v-395q0 -45 9 -66q14 -31 52 -36q10 -1 21 0q38 5 52 36q9 21 9 66v395h249v-424q0 -250 -256 -286q-35 -5 -65 -5q-29 0 -64 5q-256 36 -256 286zM456 773l-67 -43l-162 133l97 64z"/>
<glyph glyph-name="circumflex" unicode="ˆ" horiz-adv-x="492" d="M434 589l-55 -70l-115 73l-116 -72l-54 70l171 114z"/>
<glyph glyph-name="tilde" unicode="˜" horiz-adv-x="515" d="M444 643q-49 -94 -122 -94q-27 0 -75 23.5t-63 23.5q-29 0 -51 -44l-65 47q48 89 122 89q29 0 73 -24t60 -24q28 0 55 47z"/>
<glyph glyph-name="macron" unicode="¯" horiz-adv-x="512" d="M427 609h-334v76h334v-76z"/>
<glyph glyph-name="macron" unicode="ˉ" horiz-adv-x="512" d="M427 609h-334v76h334v-76z"/>
<glyph glyph-name="cedilla" unicode="¸" horiz-adv-x="372" d="M306 -53l-117 -144l-79 53l121 134z"/>
<glyph glyph-name="Scaron" unicode="Š" horiz-adv-x="583" d="M-3 56l79 195q83 -73 169 -73q63 0 64 41q1 33 -47 39l-32 4l-21 4l-22 5q-26 6 -37 11q-59 20 -93.5 69.5t-34.5 112.5q0 84 60 152q82 94 236 94q106 0 208 -51q15 -7 21 -12l-71 -177q-67 53 -141 53q-59 0 -59 -37q0 -14 13 -22l8 -4l8 -3l6 -2l11 -3l9 -2l45 -11 l24 -5l19 -5q69 -18 109 -68t40 -121q0 -34 -9 -68q-24 -93 -112 -143q-77 -44 -180 -44q-145 0 -270 71zM471 844l-171 -112l-170 113l52 68l118 -69l120 69z"/>
<glyph glyph-name="scaron" unicode="š" horiz-adv-x="465" d="M-9 40l62 149q28 -23 67 -39q45 -19 74 -14q23 4 28 19q6 19 -14 29q-2 1 -7 3l-4 1l-11 2l-9 2l-16 1q-137 23 -140 143q-3 147 180 170q44 6 98 0q85 -9 143 -42l-58 -141l-12 8l-12 7q-56 33 -93 28q-29 -4 -29 -25q0 -18 25 -23l15 -3l2 -1h3l18 -4q18 -4 63 -18 q80 -29 89 -114q2 -17 1 -21q-2 -98 -88 -141q-66 -33 -173 -30q-99 3 -179 43l-12 6zM414 648l-171 -112l-170 113l52 68l118 -69l120 69z"/>
<glyph glyph-name="brokenbar" unicode="¦" horiz-adv-x="260" d="M58 475v347h145v-347h-145zM58 -4v365h145v-365h-145z"/>
<glyph glyph-name="Eth" unicode="Ð" horiz-adv-x="775" d="M346 210q69 0 108 36.5t37 104.5q-3 119 -121 130h-47v-271h23zM0 416h71v284h262q11 0 16 -1q343 -19 389 -289q10 -61 2 -124q-18 -135 -112 -210.5t-232 -75.5h-325v284h-71v132z"/>
<glyph glyph-name="eth" unicode="ð" horiz-adv-x="593" d="M344 571l-55 63l-126 -63l-80 81l111 53q-5 4 -40 21l-56 28l132 63q64 -28 93 -49l107 51l90 -75l-110 -53q84 -87 124 -189q33 -83 33 -180q0 -141 -61 -229q-70 -103 -205 -103q-123 0 -199 86q-72 83 -72 207q0 123 67 206q72 89 190 89q30 0 57 -7zM388 409 q-33 43 -90 43q-63 0 -97 -54q-29 -46 -29 -113q0 -70 28 -115q34 -54 99 -54q62 0 96 55q29 47 29 113q0 78 -36 125z"/>
<glyph glyph-name="Yacute" unicode="Ý" horiz-adv-x="650" d="M406 700h283l-238 -400v-300h-252v300l-238 400h283l81 -176zM496 865l-164 -134l-66 43l131 154z"/>
<glyph glyph-name="yacute" unicode="ý" horiz-adv-x="581" d="M358 490h246l-299 -686h-250l118 239l-215 447h257l73 -246zM485 672l-164 -133l-67 43l132 154z"/>
<glyph glyph-name="Thorn" unicode="Þ" horiz-adv-x="638" d="M31 -196q226 2 237 0v272q20 -40 62 -62q39 -21 85 -21q95 0 153 83q50 73 52 173q2 86 -35 153q-42 77 -119 97q-27 7 -52 7q-92 0 -145 -78q-6 -9 -7 -13l1 273q-32 -2 -233 0zM326 176q-30 0 -48 20.5t-18 51.5q0 30 18.5 50.5t48.5 20.5t47 -20.5t17 -50.5 q0 -31 -17 -51.5t-48 -20.5z"/>
<glyph glyph-name="thorn" unicode="þ" horiz-adv-x="643" d="M31 0l-2 849h250v-149h93q113 0 188 -67q79 -69 79 -181q0 -20 -2 -37q-12 -96 -70 -150t-154 -54h-132v-211h-250zM328 389q32 0 51 17t19 50q0 26 -25 45q-13 10 -34 10h-57v-122h46z"/>
<glyph glyph-name="minus" unicode="­" horiz-adv-x="584" d="M3 181v144h577v-144h-577z"/>
<glyph glyph-name="minus" unicode="−" horiz-adv-x="584" d="M3 181v144h577v-144h-577z"/>
<glyph glyph-name="multiply" unicode="×" horiz-adv-x="665" d="M534 -29l-202 201l-202 -203l-100 103l201 201l-203 202l103 100l201 -200l202 200l100 -100l-200 -202l200 -202z"/>
<glyph glyph-name="Lslash" unicode="Ł" horiz-adv-x="589" d="M91 0v700h252v-471h212v-229h-464zM-10 324l490 210v-49l-490 -209v48z"/>
<glyph glyph-name="lslash" unicode="ł" horiz-adv-x="373" d="M-10 324l380 165v-49l-380 -164v48zM51 0v749h237v-749h-237z"/>
<glyph glyph-name="HT" horiz-adv-x="282"/>
<glyph glyph-name="nonmarkingreturn" horiz-adv-x="282"/>
<glyph glyph-name="Zcaron" unicode="Ž" horiz-adv-x="668" d="M650 217v-217h-674l301 490h-242v210h647l-295 -483h263zM534 846l-171 -112l-170 113l52 68l118 -69l120 69z"/>
<glyph glyph-name="zcaron" unicode="ž" horiz-adv-x="541" d="M515 188v-188h-543l212 306h-159v184h531l-214 -302h173zM479 648l-171 -112l-170 113l52 68l118 -69l120 69z"/>
<glyph glyph-name="notequal" unicode="≠" horiz-adv-x="671" d="M318 106l-101 -180l-112 63l64 117h-138v129h209l40 72h-249v128h321l101 184l113 -63l-66 -121h147v-128h-218l-40 -72h258v-129h-329z"/>
<glyph glyph-name="infinity" unicode="∞" horiz-adv-x="742" d="M716 276q0 -57 -41 -102.5t-98 -45.5q-58 0 -117 36q-26 16 -47 35q-10 9 -42 41q-22 -23 -68 -63q-66 -48 -137 -48q-58 0 -98.5 45t-40.5 103q0 61 43.5 102t104.5 41q67 0 162 -80l35 -30l10 8q25 23 77 65q54 37 111 37q60 0 103 -42t43 -102zM662 270q0 38 -27 67 t-65 29q-52 0 -127 -61l-27 -22l-9 -8l10 -11q39 -43 85 -69q28 -16 66 -16q39 0 66.5 26t27.5 65zM337 275l-9 8q-47 42 -88 64q-34 18 -65 18q-39 0 -67 -27t-28 -66t28.5 -66t67.5 -27q65 0 141 76z"/>
<glyph glyph-name="lessequal" unicode="≤" horiz-adv-x="669" d="M44 449v108l588 273v-142l-400 -185l400 -185v-141zM44 5v128h588v-128h-588z"/>
<glyph glyph-name="greaterequal" unicode="≥" horiz-adv-x="669" d="M632 449v108l-588 273v-142l400 -185l-400 -185v-141zM632 5v128h-588v-128h588z"/>
<glyph glyph-name="partialdiff" unicode="∂" horiz-adv-x="514" d="M480 417q0 -161 -49 -278q-66 -160 -205 -160q-85 0 -142 58.5t-57 143.5q0 93 55 162q59 75 150 75q70 0 147 -62l10 -8q11 72 11 111q0 70 -19 135q-25 83 -72 111q-39 23 -87 23q-26 0 -49 -8l-46 -19l-19 -8l-40 53l12 4l23 8l12 3l22 5q40 9 62 9q138 0 214 -114 q67 -99 67 -244zM380 311q-53 65 -109 65q-75 0 -118 -78q-35 -64 -35 -146q0 -56 18 -93q24 -49 74 -49q92 0 138 144q25 79 32 157z"/>
<glyph glyph-name="summation" unicode="∑" horiz-adv-x="742" d="M723 121l-3 -14l-17 -72l-18 -89l-7 -58l-75 11l-588 -3l363 414l-361 471l83 -6h542l7 -167h-23l-3 13q-14 59 -47 85q-29 21 -92 21h-287l281 -371l-304 -352h404q48 0 78 37q21 25 41 80h26z"/>
<glyph glyph-name="product" unicode="∏" horiz-adv-x="856" d="M835 -105h-319v25q100 0 100 75v728h-371v-733q0 -70 100 -70v-25h-319v25q100 0 100 70v676q0 42 -26 66t-68 24h-4v25h804v-25h-4q-94 0 -94 -101v-660q0 -75 101 -75v-25z"/>
<glyph glyph-name="pi" unicode="π" horiz-adv-x="571" d="M551 158q0 -65 -28 -114q-35 -60 -95 -60q-47 0 -74 49q-30 55 -27 134l3 77l18 173h-116l-1 -16q-6 -98 -27 -240q-15 -102 -28 -137q-16 -44 -61 -44q-25 0 -41 17t-16 43q0 13 8 21l50 67q17 17 21 48l30 241h-23q-47 0 -69 -13q-18 -12 -46 -54h-19q15 45 23 63 q14 31 37 56q33 37 80 37h393v-89h-130l-1 -13q-12 -156 -12 -207v-8q0 -109 65 -109q55 0 63 78h23z"/>
<glyph glyph-name="integral" unicode="∫" horiz-adv-x="285" d="M303 894q0 -47 -58 -47q-6 0 -14 4l-22 17q-4 1 -10 5q-23 0 -21 -34l1 -22l15 -187q5 -62 5 -233q0 -158 -5 -223q-13 -175 -53 -248q-20 -36 -80 -36q-25 0 -42 20t-17 45q0 20 23 34q15 9 25 9q12 0 48 -32q37 3 34 93l-8 261l1 285q0 133 11 199q24 147 99 147 q28 0 48 -15t20 -42z"/>
<glyph glyph-name="Omega" unicode="Ω" horiz-adv-x="799" d="M765 0h-306l16 158q52 21 78 48q69 70 69 211q0 119 -51 187q-58 78 -172 78q-111 0 -169 -79q-52 -70 -52 -185q0 -142 72 -214q27 -27 77 -46l16 -158h-308v168h18q6 -24 10 -32q8 -20 21 -24q26 -10 108 -8l92 2l-2 28q-89 27 -131 65q-95 85 -95 215q0 140 105 224 q97 78 240 78q142 0 239 -78q105 -84 105 -223q0 -73 -34 -139q-36 -69 -97 -103q-40 -22 -94 -39l-2 -28q16 0 47 -1t47 -1q87 0 105 7q21 14 29 45l3 12h16v-168z"/>
<glyph glyph-name="Omega" unicode="Ω" horiz-adv-x="799" d="M765 0h-306l16 158q52 21 78 48q69 70 69 211q0 119 -51 187q-58 78 -172 78q-111 0 -169 -79q-52 -70 -52 -185q0 -142 72 -214q27 -27 77 -46l16 -158h-308v168h18q6 -24 10 -32q8 -20 21 -24q26 -10 108 -8l92 2l-2 28q-89 27 -131 65q-95 85 -95 215q0 140 105 224 q97 78 240 78q142 0 239 -78q105 -84 105 -223q0 -73 -34 -139q-36 -69 -97 -103q-40 -22 -94 -39l-2 -28q16 0 47 -1t47 -1q87 0 105 7q21 14 29 45l3 12h16v-168z"/>
<glyph glyph-name="radical" unicode="√" horiz-adv-x="571" d="M536 947l-155 -989l-254 524l-100 -49l-18 35l154 75l204 -417l131 827z"/>
<glyph glyph-name="approxequal" unicode="≈" horiz-adv-x="571" d="M548 385q-52 -84 -149 -84l-18 3l-179 50q-18 5 -38 5q-59 0 -104 -63l-45 30q67 82 153 82l33 -3l174 -48l25 -4q62 0 110 57zM548 228q-53 -84 -147 -84q-10 0 -21 3l-178 50q-18 5 -40 5q-56 0 -102 -62l-46 28q64 83 154 83q16 0 35 -5l172 -46l24 -4q62 0 110 58z "/>
<glyph glyph-name="approxequal" unicode="⋲" horiz-adv-x="571" d="M548 385q-52 -84 -149 -84l-18 3l-179 50q-18 5 -38 5q-59 0 -104 -63l-45 30q67 82 153 82l33 -3l174 -48l25 -4q62 0 110 57zM548 228q-53 -84 -147 -84q-10 0 -21 3l-178 50q-18 5 -40 5q-56 0 -102 -62l-46 28q64 83 154 83q16 0 35 -5l172 -46l24 -4q62 0 110 58z "/>
<glyph glyph-name="Delta" unicode="Δ" horiz-adv-x="636" d="M632 0h-626l333 717zM502 52l-200 484l-226 -484h426z"/>
<glyph glyph-name="Delta" unicode="∆" horiz-adv-x="636" d="M632 0h-626l333 717zM502 52l-200 484l-226 -484h426z"/>
<glyph glyph-name="lozenge" unicode="◊" horiz-adv-x="514" d="M485 392l-201 -392h-64l-201 392l200 383h65zM421 392l-169 325l-170 -325l170 -334z"/>
<glyph glyph-name="fraction" unicode="⁄" horiz-adv-x="494" d="M507 700l-450 -700h-90l452 700h88z"/>
<glyph glyph-name="fi" unicode="" horiz-adv-x="620" d="M560 0h-166v480h166v-480zM560 554h-166q0 35 -24 64t-58 29q-37 0 -58.5 -25t-21.5 -62v-80h87v-145h-87v-335h-172v335h-56v145h56v65q0 106 69 172t176 66q149 0 215 -96q40 -59 40 -133z"/>
<glyph glyph-name="fl" unicode="" horiz-adv-x="620" d="M560 0h-166v552q0 35 -24 65t-58 30q-37 0 -58.5 -25t-21.5 -62v-80h111v-145h-111v-335h-172v335h-56v145h56v65q0 106 69 172t176 66q149 0 215 -96q40 -59 40 -133v-554z"/>
<glyph glyph-name="apple" unicode="" horiz-adv-x="822" d="M555 708q0 -65 -45 -117t-109 -52q0 75 40 122.5t114 57.5v-11zM724 176q-82 -204 -176 -204q-21 0 -42 9l-42 18q-9 4 -33 4q-37 0 -55 -5l-44 -19q-19 -8 -40 -8q-58 0 -115 85q-88 131 -88 262q0 95 49 159q54 70 146 70q33 0 81 -19q31 -12 49 -12t45 10q63 23 95 23 q96 0 150 -74q-83 -65 -83 -145q0 -112 103 -154z"/>
<glyph glyph-name="dotlessi" unicode="ı" horiz-adv-x="292" d="M232 0h-172v480h172v-480z"/>
<glyph glyph-name="breve" unicode="˘" horiz-adv-x="512" d="M423 685q-8 -64 -54.5 -101.5t-112.5 -37.5q-65 0 -111 37.5t-56 101.5h79q22 -53 88 -53q67 0 89 53h78z"/>
<glyph glyph-name="dotaccent" unicode="˙" horiz-adv-x="392" d="M299 619q0 -29 -21.5 -47.5t-51.5 -18.5t-52 18.5t-22 47.5t22 46.5t52 17.5q29 0 51 -17.5t22 -46.5z"/>
<glyph glyph-name="ring" unicode="˚" horiz-adv-x="477" d="M340 609q0 -45 -31.5 -70.5t-78.5 -25.5q-45 0 -75 25q-33 27 -33 71q0 45 32 73q30 25 76 25t77 -25q33 -28 33 -73zM269 610q0 32 -39 32q-38 0 -38 -32q0 -33 38 -33q39 0 39 33z"/>
<glyph glyph-name="hungarumlaut" unicode="˝" horiz-adv-x="522" d="M469 679l-112 -161l-79 13l77 169zM292 684l-109 -158l-79 13l73 165z"/>
<glyph glyph-name="ogonek" unicode="˛" horiz-adv-x="311" d="M235 -123l-17 -59q-31 -20 -70 -20q-40 0 -70 20q-35 23 -35 61q0 34 28 70q25 33 59 51h65v-11q-20 -11 -38 -35q-21 -26 -21 -46q0 -33 44 -33q24 0 51 21z"/>
<glyph glyph-name="caron" unicode="ˇ" horiz-adv-x="462" d="M396 635l-171 -112l-170 113l52 68l118 -69l120 69z"/>
<glyph glyph-name="glyph108" horiz-adv-x="280"/>
</font>
</defs>
</svg>
